Category List
Links

downTURK recommends - Zevera - revolutionary multihoster!


Video2Brain - Photoshop-Special: Freistellen

1 Mar 2012 | Category: eLearning | Author: Holynight01 | Comments [0]
Video2Brain - Photoshop-Special: Freistellen

Video2Brain - Photoshop-Special: Freistellen
Alle Werkzeuge, alle Techniken ??? aktuell zu CS5

(.flv) in an interactive shell | German | 1280 x 720 | VP6 ~1024 kbps | 15.000 fps
MPEG Audio | 64.0 kbps | 44.1 KHz | 1 channel | ~5 hours | 1 GB
Genre: Video Training

Stellen Sie sich auch oft die Frage, wie man Haare und andere detaillierte Objekte moglichst gut freistellt? Maike Jarsetz zeigt Ihnen, wie?s geht: Schauen Sie Ihr uber die Schulter und erfahren Sie, wie verschiedenste Photoshop-Werkzeuge und -Funktionen eingesetzt werden, um uberzeugende Freistellungen zu erreichen. Sie lernen Techniken mit unterschiedlichen Schwierigkeitsgraden und sie verrat Ihnen eine Menge Praxistipps, wie Sie durch geschickte Kombination dieser Techniken noch bessere Ergebnisse erreichen. So stellen Sie bald nicht nur Haare schnell und perfekt frei!

Inhalt

Auswahltechniken

Einleitung 04:57

Auswahlen und Masken 06:48

Ubersicht Auswahlwerkzeuge 07:35

Zauberstab und Schnellauswahl 04:26

Randauswahl extrahieren 11:59

Farbbereich auswahlen 06:09

Luminanzauswahl 05:47

Fulloptionen oder Farbbereiche ausblenden 06:36

Verschiedene Freistellungsstrategien

Das magnetische Lasso 07:26

Das Pfadwerkzeug 13:24

Bluescreen/Greenscreen 06:00

Halbtransparentes freistellen 07:06

Auswahlen addieren 07:56

Masken nachbearbeiten

Maskenkontrast steigern 02:43

Helle oder dunkle Bereiche vergro?ern 04:15

Maskenkontrast per Pinsel nacharbeiten 08:47

Maskenkante verbessern 03:49

Tiefenscharfe variieren 05:54

Maskenkante perfektionieren

Radius statt Weichzeichnung 03:50

Kanten abwedeln und nachbelichten 04:20

Kanten individuell weichzeichnen 03:45

Hintergrundfarbe auftragen 04:08

Randpixel uberlagern 04:59

Auswahlkanten und Details mit CS5 verbessern

Kanten- und Maskenverbesserung 07:49

Freistellungskante verbessern 05:54

Maskenkontrast bearbeiten 04:36

Farbsaume entfernen 06:31

Detailarbeit mit neuen Pinselformen 08:03

Haare, Haare, Haare

Die Kanale nutzen 11:32

Kanalberechnungen 09:14

Geduldsarbeit 18:18

Mit Haarpinseln arbeiten 10:32

Herausforderung: Dunkles Haar - Teil 1 05:33

Herausforderung: Dunkles Haar - Teil 2 10:58

Tucke: Blondes Haar 14:17

In den Hintergrund einpassen

Tiefenunscharfe nacharbeiten 03:51

Umgebungslicht auftragen 02:50

Farbwelten anpassen 02:28

Fotofilter nutzen 02:08

Exkurs: onOne Mask Pro 4.1

Grundprinzipien von onOne Mask Pro 06:40

Vorder- und Hintergrundfarben 03:03

Greenscreen per Doppelklick 03:37

Masken uberarbeiten 07:03

MediaInfo

General
Complete name : 388_05_03.flv
Format : Flash Video
File size : 59.6 MiB
Duration : 18mn 18s
Overall bit rate : 455 Kbps
Encoded date : Wed Jul 22 23:17:32 2009
Video
Format : VP6
Duration : 18mn 18s
Bit rate : 1 024 Kbps
Width : 1 280 pixels
Height : 720 pixels
Display aspect ratio : 16:9
Frame rate : 15.000 fps
Bits/(Pixel*Frame) : 0.074
Stream size : 134 MiB
Audio
Format : MPEG Audio
Format version : Version 1
Format profile : Layer 3
Duration : 18mn 18s
Bit rate mode : Constant
Bit rate : 64.0 Kbps
Channel(s) : 1 channel
Sampling rate : 44.1 KHz
Resolution : 16 bits
Stream size : 8.38 MiB (14%)

Systemvoraussetzungen:
Betriebssystem: Windows XP / Vista / 7 oder Mac OS X 10.1
CPU: Pentium 4 2,6 GHz oder G5
VIDEO: Die minimale Bildschirmauflosung von 1024x768
RAM: 512 Mb
Sound: Soundkarte, Lautsprecher oder Kopfhorer

Video2Brain - Photoshop-Special: Freistellen


Buy Premium Before Download To Get Resumable Support & Max Speed

Extabit:
http://extabit.com/file/27au2momkjst0/Video2Brain..PhotoshopSpecial.Freistellen.part1.rar
http://extabit.com/file/27au2mominl38/Video2Brain..PhotoshopSpecial.Freistellen.part2.rar
http://extabit.com/file/27au2momjaul0/Video2Brain..PhotoshopSpecial.Freistellen.part3.rar
http://extabit.com/file/27au2momgrwac/Video2Brain..PhotoshopSpecial.Freistellen.part4.rar
http://extabit.com/file/27au2moi93fx0/Video2Brain..PhotoshopSpecial.Freistellen.part5.rar

Turbobit:
http://turbobit.net/d22dht83rji9/Video2Brain..PhotoshopSpecial.Freistellen.part1.rar.html
http://turbobit.net/knsmdw6qt2py/Video2Brain..PhotoshopSpecial.Freistellen.part2.rar.html
http://turbobit.net/lyek59bwsd3s/Video2Brain..PhotoshopSpecial.Freistellen.part3.rar.html
http://turbobit.net/jfd159wdp4yd/Video2Brain..PhotoshopSpecial.Freistellen.part4.rar.html
http://turbobit.net/rwaipl8pvwek/Video2Brain..PhotoshopSpecial.Freistellen.part5.rar.html


Links are Interchangeable - No Password - Single Extraction
Information
Please Login or Create a FREE Account to Post Comments
downTURK Contains: Rapidgator Secureupload Rapidfileshare Extabit Uploaded Letitbit Depositfiles File4sharing Shareflare Netload Rapidshare hidden object, dash, time management, tycoon, adventure, games, movies, TV shows, graphics, software, webmaster, tutorials, documentaries, portable, ebooks, iphone apps.

Recent Search Tags: Zebrazil Zarni Family Font | The Saratov Approach 2013 Brrip Xvid Mp3 Rarbg | Carboncopy Type Promo After Effects Project Videohive | Ulan İstanbul | O And Amp O Defrag Professional 18.0 64 Bit Serial | O And Amp O Defrag Professional 18 64 Bit Serial | O And Amp O Defrag Professional 18.0 | O And Amp O Defrag 18.0 | Adagio Sans Script Font Family 9 Fonts For 140 | Adobe Photoshop Lightroom 5.4 Final Macosx | Vector Calendar 2015 With Children | Top Vector Ornament | Oo Defrag 18.0 | O&o Defrag 18.0 | Writing Music | O&o Defrag Professional 18.0 | O&o Defrag Professional 18.0 64 Bit Serial | Spacestock Photo | O&o Defrag Professional 18 64 Bit Serial | Universe Stock Photo